Download The Hitmans Wifes Bodyguard 2021 EXTENDED CUT HDRip XviD B4ND1T69 torrent - GloDLS
HTML tutorial
Torrent Details For "The Hitmans Wifes Bodyguard 2021 EXTENDED CUT HDRip XviD B4ND1T69"

The Hitmans Wifes Bodyguard 2021 EXTENDED CUT HDRip XviD B4ND1T69

To download this torrent, you need a BitTorrent client: Vuze or BTGuard
Download this torrent
Download using Magnet Link

Health:
Seeds: 147
Leechers: 10
Completed: 2,373 
Last Checked: 27-07-2021 22:55:49

Uploader Reputation points : 1044





Write a Review for the Uploader:   0   Say Thanks with one good review:
Share on Facebook


Details
Name:The Hitmans Wifes Bodyguard 2021 EXTENDED CUT HDRip XviD B4ND1T69
Description:
The.Hitmans.Wifes.Bodyguard.2021.EXTENDED.CUT.HDRip.XviD.B4ND1T69



Director: Patrick Hughes
Writers: Tom O'Connor(screenplay), Brandon Murphy(screenplay), Phillip Murphy(screenplay)
Stars: Ryan Reynolds, Samuel L. Jackson, Salma Hayek

Plot/Story:
The bodyguard Michael Bryce continues his friendship with assassin Darius Kincaid as they try to save Darius' wife Sonia.

General
Complete name               : The.Hitmans.Wifes.Bodyguard.2021.EXTENDED.CUT.HDRip.XviD.B4ND1T69.avi
Format                      : AVI
Format/Info                 : Audio Video Interleave
File size                   : 1.29 GiB
Duration                    : 1 h 56 min
Overall bit rate            : 1 582 kb/s
Subtitles                   : Yes...Hardcoded for non-English parts + file included(HI)

Video
ID                          : 0
Format                      : MPEG-4 Visual
Format profile              : Advanced [email protected]
Format settings, BVOP       : 2
Format settings, QPel       : No
Format settings, GMC        : No warppoints
Format settings, Matrix     : Default (H.263)
Codec ID                    : XVID
Codec ID/Hint               : XviD
Duration                    : 1 h 56 min
Bit rate                    : 1 440 kb/s
Width                       : 720 pixels
Height                      : 304 pixels
Display aspect ratio        : 2.35:1
Frame rate                  : 23.976 (24000/1001) FPS
Color space                 : YUV
Chroma subsampling          : 4:2:0
Bit depth                   : 8 bits
Scan type                   : Progressive
Compression mode            : Lossy
Bits/(Pixel*Frame)          : 0.274
Stream size                 : 1.17 GiB (91%)
Writing library             : XviD 64

Audio
ID                          : 1
Format                      : MPEG Audio
Format version              : Version 1
Format profile              : Layer 3
Codec ID                    : 55
Codec ID/Hint               : MP3
Duration                    : 1 h 56 min
Bit rate mode               : Constant
Bit rate                    : 128 kb/s
Channel(s)                  : 2 channels
Sampling rate               : 48.0 kHz
Compression mode            : Lossy
Stream size                 : 107 MiB (8%)
Alignment                   : Aligned on interleaves
Interleave, duration        : 24  ms (0.58 video frame)

Screenshots:










Please Seed For As Long As Possible
Or At Least 1:1 Ratio...Thanks
Enjoy Peeps
YouTube Video:   
Category:Movies
Language:English  English
Total Size:1.29 GB
Info Hash:158F1211BCC5D4571683A40DA02001B0D411F139
Added By:B4ND1T69 Verified UploaderMovie Pirate
Date Added:2021-07-18 22:36:04
Torrent Status:Torrent Verified


Ratings:Not Yet Rated (Log in to rate it)


Tracker:
udp://tracker.opentrackr.org:1337/announce

This Torrent also has backup trackers
URLSeedersLeechersCompleted
udp://tracker.opentrackr.org:1337/announce272956
udp://exodus.desync.com:6969/announce14125
udp://9.rarbg.to:2750/announce1406
udp://open.stealth.si:80/announce152389
udp://tracker.uw0.xyz:6969/announce141314
udp://tracker.tiny-vps.com:6969/announce000
udp://fasttracker.foreverpirates.co:6969/announce000
udp://opentracker.i2p.rocks:6969/announce17127
udp://tracker.moeking.me:6969/announce122336
udp://tracker.dler.org:6969/announce200
udp://tracker.zerobytes.xyz:1337/announce1407
udp://p4p.arenabg.com:1337/announce121313
udp://tracker.army:6969/announce600


File List: 





Comments
No comments still posted